Archivos de música compartida ( Freeshared files music )


 

un_mundo_mejor_side_

-Demostrativas piezas musicales-

Estilo : sonidos rítmicos de instrumentos variados ( años 80 ).

Grupo : Signasupervestes.

Disco : Single´s demostrativos sonidos.

Album : Occidental patriot.

Formato : Mp3.

1. Un_mundo_mejor_es_posible_.MP3

2. ( Bonus ) : Serpico_theory_.MP3

Format : MPEG Audio
File size : 17.1 MiB
Duration : 7mn 27s
Overall bit rate mode : Constant
Overall bit rate : 320 Kbps

Audio
Format : MPEG Audio
Format version : Version 1
Format profile : Layer 3
Mode : Joint stereo
Duration : 7mn 28s
Bit rate mode : Constant
Bit rate : 320 Kbps
Channel(s) : 2 channels
Sampling rate : 44.1 KHz
Compression mode : Lossy
Stream size : 17.1 MiB (100%)

the_master_

Grupo : Signasupervestes

Estilo : orquesta.

Disco : Single´s demostrativos sonidos.

Album : INRI-INRI

1. INRI-INRI.MP3

Format : MPEG Audio
File size : 7.66 MiB
Duration : 3mn 20s
Overall bit rate mode : Constant
Overall bit rate : 320 Kbps

Audio
Format : MPEG Audio
Format version : Version 1
Format profile : Layer 3
Mode : Joint stereo
Duration : 3mn 20s
Bit rate mode : Constant
Bit rate : 320 Kbps
Channel(s) : 2 channels
Sampling rate : 44.1 KHz
Compression mode : Lossy
Stream size : 7.66 MiB (100%)

single_honor_my_vesta

Grupo : Signasupervestes

Estilo : sonidos rítmicos de instrumentos variados ( años 80 ).

Disco : Single´s demostrativos sonidos.

Album : Solo contra el Diablo.

Demo´s :

– Honor : my vesta.

– Defendiendo_la_Justicia_contra_todos.

– Serpico.

Honor_my_vesta.MP3
Format : MPEG Audio
File size : 20.1 MiB
Duration : 8mn 48s
Overall bit rate mode : Constant
Overall bit rate : 320 Kbps

Audio
Format : MPEG Audio
Format version : Version 1
Format profile : Layer 3
Mode : Joint stereo
Duration : 8mn 48s
Bit rate mode : Constant
Bit rate : 320 Kbps
Channel(s) : 2 channels
Sampling rate : 44.1 KHz
Compression mode : Lossy
Stream size : 20.1 MiB (100%)

zsoaiuf2_edited

Grupo : Signasupervestes.

Estilo : sonidos rítmicos de instrumentos variados.

Disco : Single´s demostrativos sonidos.

Album : 160 pasos por min.

Demostrativo sonido :

– Tifariti ( ó Tifaritis inst. version corta)..MP3

Tifaritis ( ó Tifaritis inst.version con algunos arreglos ).MP3

Format : MPEG Audio
File size : 9.77 MiB
Duration : 4mn 16s
Overall bit rate mode : Constant
Overall bit rate : 320 Kbps

Audio
Format : MPEG Audio
Format version : Version 1
Format profile : Layer 3
Mode : Joint stereo
Duration : 4mn 16s
Bit rate mode : Constant
Bit rate : 320 Kbps
Channel(s) : 2 channels
Sampling rate : 44.1 KHz
Compression mode : Lossy
Stream size : 9.77 MiB (100%)

presentation_song_hax_or_

Grupo : Signasupervestes.

Estilo : sonidos rítmicos de instrumentos variados.

Disco : Single´s demostrativos sonidos.

Album : Hax_or.

Demostrativo sonido : Hax_or.

Haxor_.MP3
Format : MPEG Audio
File size : 9.77 MiB
Duration : 4mn 16s
Overall bit rate mode : Constant
Overall bit rate : 320 Kbps

Audio
Format : MPEG Audio
Format version : Version 1
Format profile : Layer 3
Mode : Joint stereo
Duration : 4mn 16s
Bit rate mode : Constant
Bit rate : 320 Kbps
Channel(s) : 2 channels
Sampling rate : 44.1 KHz
Compression mode : Lossy
Stream size : 9.77 MiB (100%)

test_6

Grupo : Signasupervestes.

Estilo : sonidos rítmicos de instrumentos variados.

Disco : Single´s demostrativos sonidos.

Album : Off-out-side ( ¨ no nos afecta ¨ [ ó ¨ no nos importa ¨ ] ).

Demostrativo sonido : Off-out-side.

( 2 song ; basis, and extended version )

Single_Music : Off_out_side_\Patriot_US_3.MP3
Format : MPEG Audio
File size : 13.0 MiB
Duration : 5mn 41s
Overall bit rate mode : Constant
Overall bit rate : 320 Kbps

Audio
Format : MPEG Audio
Format version : Version 1
Format profile : Layer 3
Mode : Joint stereo
Duration : 5mn 41s
Bit rate mode : Constant
Bit rate : 320 Kbps
Channel(s) : 2 channels
Sampling rate : 44.1 KHz
Compression mode : Lossy
Stream size : 13.0 MiB (100%)

test_tokyo2

Grupo : Signasupervestes.

Estilo : sonidos rítmicos de instrumentos variados.

Disco : Single´s demostrativos sonidos.

Album : Solo contra el Diablo.

Demostrativo sonido : An police in Tokyo.

Single_Music : Signasupervestes : An_police_in_Tokyo.MP3
Format : MPEG Audio
File size : 9.77 MiB
Duration : 4mn 16s
Overall bit rate mode : Constant
Overall bit rate : 320 Kbps

Audio
Format : MPEG Audio
Format version : Version 1
Format profile : Layer 3
Mode : Joint stereo
Duration : 4mn 16s
Bit rate mode : Constant
Bit rate : 320 Kbps
Channel(s) : 2 channels
Sampling rate : 44.1 KHz
Compression mode : Lossy
Stream size : 9.77 MiB (100%)

image_

Grupo : Signasupervestes.

Estilo : sonidos rítmicos de instrumentos variados.

Disco : Single´s demostrativos sonidos.

Album : No_negro_color_flag_

Demostrativo sonido : General_George_Washington

Single_Music : General_George_Washington.MP3
Format : MPEG Audio
File size : 16.0 MiB
Duration : 7mn 0s
Overall bit rate mode : Constant
Overall bit rate : 320 Kbps

Audio
Format : MPEG Audio
Format version : Version 1
Format profile : Layer 3
Mode : Joint stereo
Duration : 7mn 0s
Bit rate mode : Constant
Bit rate : 320 Kbps
Channel(s) : 2 channels
Sampling rate : 44.1 KHz
Compression mode : Lossy
Stream size : 16.0 MiB (100%)

pic_demostrative

Grupo : Signasupervestes.

Estilo : sonidos rítmicos de instrumentos variados.

Disco : Single´s demostrativos sonidos.

Album : Signasupervestes ( Patriotas occidentales ) 1er album.

Demostrativos sonidos :

-Signas_Legion_

-Militvm_sigilum_

( Bonus : I´m occidental patriot ).

Single_Music_\Patriotas_occidentales_\Signas_Legion_.MP3
Format : MPEG Audio
File size : 10.2 MiB
Duration : 4mn 28s
Overall bit rate mode : Constant
Overall bit rate : 320 Kbps

Audio
Format : MPEG Audio
Format version : Version 1
Format profile : Layer 3
Mode : Joint stereo
Duration : 4mn 28s
Bit rate mode : Constant
Bit rate : 320 Kbps
Channel(s) : 2 channels
Sampling rate : 44.1 KHz
Compression mode : Lossy
Stream size : 10.2 MiB (100%)

album_

Grupo : Signasupervestes.

Estilo : sonidos rítmicos de instrumentos variados.

Disco : Single´s demostrativos sonidos.

Album : Signasupervestes ( BOOR ) .

Demostrativos sonidos :

-Franco tenía razón.

Single_Music : Franco_tenía_razón_.MP3
Format : MPEG Audio
File size : 9.91 MiB
Duration : 4mn 19s
Overall bit rate mode : Constant
Overall bit rate : 320 Kbps

Audio
Format : MPEG Audio
Format version : Version 1
Format profile : Layer 3
Mode : Joint stereo
Duration : 4mn 19s
Bit rate mode : Constant
Bit rate : 320 Kbps
Channel(s) : 2 channels
Sampling rate : 44.1 KHz
Compression mode : Lossy
Stream size : 9.90 MiB (100%)

album_

Grupo : Signasupervestes.

Estilo : sonidos rítmicos de instrumentos variados.

Disco : Single´s demostrativos sonidos.

Album : 160 pasos p. min.

Demostrativos sonidos :

– ¨ …Y lo que no conmigo. ¨

Single_Music_\Y_L_Q_N_C_\Y_L_Q_N_C_.MP3
Format : MPEG Audio
File size : 10.2 MiB
Duration : 4mn 28s
Overall bit rate mode : Constant
Overall bit rate : 320 Kbps

Audio
Format : MPEG Audio
Format version : Version 1
Format profile : Layer 3
Mode : Joint stereo
Duration : 4mn 28s
Bit rate mode : Constant
Bit rate : 320 Kbps
Channel(s) : 2 channels
Sampling rate : 44.1 KHz
Compression mode : Lossy
Stream size : 10.2 MiB (100%)

Anuncios

Autor: patriotasoccidentales

Investigador casual, aficionado a la Historia y al estudio de la Seguridad.

Responder

Introduce tus datos o haz clic en un icono para iniciar sesión:

Logo de WordPress.com

Estás comentando usando tu cuenta de WordPress.com. Cerrar sesión / Cambiar )

Imagen de Twitter

Estás comentando usando tu cuenta de Twitter. Cerrar sesión / Cambiar )

Foto de Facebook

Estás comentando usando tu cuenta de Facebook. Cerrar sesión / Cambiar )

Google+ photo

Estás comentando usando tu cuenta de Google+. Cerrar sesión / Cambiar )

Conectando a %s